Login
Username:
Password:
[Signup]
[Recover Account]


Browse Torrents

Poll


You must be logged in to view polls



Latest Torrents
CyberLink AudioDir...
- [Size: 213.61 MB]

Bigfoot.2018.HDRip...
- [Size: 872.10 MB]

Highway.Thru.Hell....
- [Size: 1.24 GB]

MAGIX VEGAS Movie ...
- [Size: 370.01 MB]

WYSIWYG Web Builde...
- [Size: 38.79 MB]


Torrent Details For "Pope.Francis.A.Man.of.His.Word.2018.1080p.BluRay.REMUX.AVC.DTS-HD.MA.5.1-FGT"

Pope.Francis.A.Man.of.His.Word.2018.1080p.BluRay.REMUX.AVC.DTS-HD.MA.5.1-FGT

Download this torrent | Magnet Download
Health:
Seeds: 6
Leechers: 76
Completed:
Last Checked: 07-11-2018 21:35:10
External Torrent
Update Stats



Images Host

Poster


iMDB
Title: Pope Francis: A Man of His Word
Year: 2018
Runtime: 96 minutes
Votes: 844
Rating: 5.5/10
Language: Italian, Spanish, German, English
Tagline: Hope is a universal message.
Director: Wim Wenders
Writing By: Wim Wenders,David Rosier,
Produced By: Stefano Bugliosi,Andrea Gambetta,Samanta Gandolfi Branca,Uwe Kiefer,Alessandro Lo Monaco,Di Liberto Massimiliano,David Rosier,Wim Wenders,
Music: Laurent Petitgand
Cast:
Pope Francis as Himself
Joe Biden as Himself
Daniele De Angelis as Friar
Carlo Falconetti as Friar
Evo Morales as Himself
Ignazio Oliva as Saint Francis
Paul Ryan as Himself
Recep Tayyip Erdogan as Himself
Stephen Hawking as Himself
John Kerry as Himself
Trailers:
Official Trailer


Watch-Free-HD     Download

Details
Name:Pope.Francis.A.Man.of.His.Word.2018.1080p.BluRay.REMUX.AVC.DTS-HD.MA.5.1-FGT
Description:
Video
ID : 1
Format : AVC
Format/Info : Advanced Video Codec
Format profile : [email protected]
Format settings : CABAC / 4 Ref Frames
Format settings, CABAC : Yes
Format settings, ReFrames : 4 frames
Format settings, GOP : M=3, N=12
Codec ID : V_MPEG4/ISO/AVC
Duration : 1 h 36 min
Bit rate mode : Variable
Bit rate : 30.1 Mb/s
Maximum bit rate : 33.0 Mb/s
Width : 1 920 pixels
Height : 1 080 pixels
Display aspect ratio : 16:9
Frame rate mode : Constant
Frame rate : 23.976 (24000/1001) FPS
Color space : YUV
Chroma subsampling : 4:2:0
Bit depth : 8 bits
Scan type : Progressive
Bits/(Pixel*Frame) : 0.605
Stream size : 20.2 GiB (74%)
Title : Pope.Francis.A.Man.of.His.Word.2018.1080p.BluRay.REMUX.AVC.DTS-HD.MA.5.1-FGT
Language : English
Default : No
Forced : No

Audio #1
ID : 2
Format : DTS XLL
Format/Info : Digital Theater Systems
Commercial name : DTS-HD Master Audio
Codec ID : A_DTS
Duration : 1 h 36 min
Bit rate mode : Variable
Bit rate : 3 635 kb/s
Channel(s) : 6 channels
Channel layout : C L R Ls Rs LFE
Sampling rate : 48.0 kHz
Frame rate : 93.750 FPS (512 SPF)
Bit depth : 24 bits
Compression mode : Lossless
Stream size : 2.44 GiB (9%)
Title : Pope.Francis.A.Man.of.His.Word.2018.1080p.BluRay.REMUX.AVC.DTS-HD.MA.5.1-FGT
Language : English
Default : Yes
Forced : No


 http://imagecurl.com/viewer.p...8000609065203998.png

 http://imagecurl.com/viewer.p...1024673362857487.png

 http://imagecurl.com/viewer.p...5644213.png[/center]
Category:Movies > Remux
Lang:English  English
Total Size:27.32 GB
Info Hash:03bf106dadcccfd1facc14f92dc834b3fcf9c47d
Added By:Scene
Date Added:07-11-2018 17:07:47
Downloads:20

Ratings:Not Yet Rated (Log in to rate it)


Tracker:
http://tracker.trackerfix.com:80/announce


File List: 


Comments

No comments still posted

Top
Copyright 2018 DownloadHD -|- Page Generated In 0.037048 secs.
-|- RSS Feed -|- Feed Info