Login
Username:
Password:
[Signup]
[Recover Account]


Browse Torrents

Poll


You must be logged in to view polls



Latest Torrents
CyberLink AudioDir...
- [Size: 213.61 MB]

Bigfoot.2018.HDRip...
- [Size: 872.10 MB]

Highway.Thru.Hell....
- [Size: 1.24 GB]

MAGIX VEGAS Movie ...
- [Size: 370.01 MB]

WYSIWYG Web Builde...
- [Size: 38.79 MB]


Torrent Details For "Logans.Run.1976.1080p.BluRay.REMUX.VC-1.TrueHD.5.1-FGT"

Logans.Run.1976.1080p.BluRay.REMUX.VC-1.TrueHD.5.1-FGT

Download this torrent | Magnet Download
Health:
Seeds: 42
Leechers: 128
Completed: 924 
Last Checked: 10-11-2018 03:17:51
External Torrent
Update Stats



Images Host

Poster


iMDB
Title: Logan's Run
Year: 1976
Runtime: 119 minutes
Votes: 45616
Rating: 6.8/10
Language: English
Tagline: The only thing you can't have in this perfect world of total pleasure is your 30th birthday . . . Logan is 29.
Director: Michael Anderson
Writing By: David Zelag Goodman,William F. Nolan,George Clayton Johnson,
Produced By: Hugh Benson,Saul David,
Music: Jerry Goldsmith
Cast:
Michael York as Logan
Richard Jordan as Francis
Jenny Agutter as Jessica
Roscoe Lee Browne as Box
Farrah Fawcett as Holly
Michael Anderson Jr. as Doc
Peter Ustinov as Old Man
Randolph Roberts as 2nd Sanctuary Man
Lara Lindsay as The Woman Runner
Gary Morgan as Billy


Watch-Free-HD     Download

Details
Name:Logans.Run.1976.1080p.BluRay.REMUX.VC-1.TrueHD.5.1-FGT
Description:
Video
ID : 1
Format : VC-1
Format profile : [email protected]
Codec ID : V_MS/VFW/FOURCC / WVC1
Codec ID/Hint : Microsoft
Duration : 1 h 58 min
Bit rate : 18.7 Mb/s
Width : 1 920 pixels
Height : 1 080 pixels
Display aspect ratio : 16:9
Frame rate mode : Constant
Frame rate : 23.976 (24000/1001) FPS
Color space : YUV
Chroma subsampling : 4:2:0
Bit depth : 8 bits
Scan type : Progressive
Compression mode : Lossy
Bits/(Pixel*Frame) : 0.377
Stream size : 15.5 GiB (83%)
Title : Logans.Run.1976.1080p.BluRay.REMUX.VC-1.TrueHD.5.1-FGT
Language : English
Default : No
Forced : No

Audio #1
ID : 2
Format : MLP FBA
Format/Info : Meridian Lossless Packing FBA
Commercial name : Dolby TrueHD
Codec ID : A_TRUEHD
Duration : 1 h 58 min
Bit rate mode : Variable
Bit rate : 1 698 kb/s
Maximum bit rate : 3 168 kb/s
Channel(s) : 6 channels
Channel layout : L R C LFE Ls Rs
Sampling rate : 48.0 kHz
Frame rate : 1 200.000 FPS (40 SPF)
Compression mode : Lossless
Stream size : 1.41 GiB (8%)
Title : Logans.Run.1976.1080p.BluRay.REMUX.VC-1.TrueHD.5.1-FGT
Language : English
Default : Yes
Forced : No

Audio #2
ID : 3
Format : AC-3
Format/Info : Audio Coding 3
Commercial name : Dolby Digital
Codec ID : A_AC3
Duration : 1 h 58 min
Bit rate mode : Constant
Bit rate : 640 kb/s
Channel(s) : 6 channels
Channel layout : L R C LFE Ls Rs
Sampling rate : 48.0 kHz
Frame rate : 31.250 FPS (1536 SPF)
Bit depth : 16 bits
Compression mode : Lossy
Stream size : 543 MiB (3%)
Title : Logans.Run.1976.1080p.BluRay.REMUX.VC-1.TrueHD.5.1-FGT
Language : English
Service kind : Complete Main
Default : No
Forced : No


 http://imagecurl.com/viewer.p...2402478153163482.png


 http://imagecurl.com/viewer.p...4729927594089701.png


 http://imagecurl.com/viewer.p...6477158.png[/center]
Category:Movies > Remux
Lang:English  English
Total Size:18.58 GB
Info Hash:4e5d69d152da7edc368e7da7b74c1dcdc2d60adc
Added By:Scene
Date Added:07-11-2018 17:24:28
Downloads:28

Ratings:Not Yet Rated (Log in to rate it)


Tracker:
http://tracker.trackerfix.com:80/announce


File List: 


Comments

No comments still posted

Top
Copyright 2018 DownloadHD -|- Page Generated In 0.291577 secs.
-|- RSS Feed -|- Feed Info